Vk Flac 24 Bit

To se mi líbí. With 192 kHz, you can represent more sounds that are too high for people to hear. 24 bit flac onto dvd Sign in to follow this. Followers 0. 005 Buried And Forgotten. 1 kHz (Tracks) / FLAC 24 bit / 96 kHz (Tracks) Artist: Sophie Hunger. It works only on 64-bit Windows. Torrent Details For "Taylor Swift - folklore (2020) [24 Bit Hi-Res] FLAC Album [PMEDIA] **⭐️" Taylor Swift - folklore (2020) [24 Bit Hi-Res] FLAC Album [PMEDIA] **⭐️ To download this torrent, you need a BitTorrent client: Vuze or BTGuard. Wonderful Crazy Night Elton John 2016. 1 kHz Artist : John Mayer Album : Born and Raised Released : May 22, 20 Death Race 2050 2017 Bluray 1080p Light Hi-Fi - Death Race 2050 is a 2017 political satire action film directed by G. If you convert a 24-bit/96kHz WAV to a 16-bit/44. 4 kHz, FLAC Pink Noise, 24 Bit / 192 kHz, FLAC Pink Noise, 24 Bit / 352. 5,1 mil Me gusta. wav" WAVE INDEX 01 00:00:00 TRACK 21 AUDIO TITLE "End Credits" SONGWRITER "Kevin Manthei" FLAGS DCP INDEX 00 03:09:24 FILE "21 - End Credits. Processed By. Lying From You. 24/FLAC 24bit + MP3/RAR) Posted by Free Jp Music on July 19, 2020. Arisen My Senses. Quality: FLAC 16 bit / 44. org Dido - No Angel [24 bit FLAC] vinyl Audio FLAC 8 days monova. 1 kHz Size: 5. net/ | Version 2. Homepage / J-Music / ALBUM / Album Wagakki Band Otonoe [Flac 24 bit] Download Wagakki band otonoe flac Album Wagakki Band Otonoe [Flac 24 bit] By yukorin Posted on 03/09/2020. : ROUGH121 Genre: Rawphoric hardstyle BPM: 155 Note: 24-bit FLAC files. 2) 24 Bit Vinyl Pack; The Smiths 24 Bit Vinyl Pack. KAYTRANADA – BUBBA flac Genre: R&B/Soul Release Date: December 13, 2019 Quality: 24-bit | 44. Download MP3, WAV, FLAC, WAV (24-bit). FLAC is a free lossless compressed audio format which supports streaming and archival. you may refer to this step by step guide on How to Burn 24-bit/48kHz FLAC to DVD Audio, 24-bit /96 kHz FLAC to DVD-A, 24-bit /192 kHz FLAC to music DVD. Does MediaMonkey 3. WAV / FLAC WAV (24-bit) 320 kbps, LAME-encoded Add to Cart 16-bit Lossless. A while back I experimented with 16 bit CD rips and converting them to 24 bit. http://files. Emotionless (Album Version) 4. Quality: FLAC 24 bit / 96 kHz (Tracks) + FLAC 16 bit / 44. Lying From You. Michael Jackson - Thriller flac Genre: R&B/Soul Release Date: November 30, 1982 Quality: 24-bit | 88. 1 kHz, FLAC Pink Noise, 24 Bit / 48 kHz, FLAC Pink Noise, 24 Bit / 88. Rumour Has It 03. Отметки "Нравится": 5,1 тыс. 1 kHz (Tracks) / FLAC 24 bit / 44. Note I'm using decent headphones so I don't want some mushy mp3 sound played using those hideous cheap bud type phones (usually more people Not wearing them hear. Tapes captured @ 24-bit/96kHz, no Dolby. Загрузить альбом ( lossless FLAC 24 bit) https://vk. Download samples of High-Resolution music files. 8MHz/64fs Download DSD Multichannel 2. wavs generating them, while correctly generated FLAC files from the same source are of course about 50-55% of the. cc/5IHcu4 Pitch Hammer ( Legendary)–Fire in the Sky. Nirvana Nirvana [Anthology] (2015) FLAC 24 bit torrent download, InfoHash B643CD11F3FB1C13EF6CACB05D61DCB6B2947DB3. flac that I renamed so I could try the batch convert. 08 Roxy Music - Dance Away. The source 24-bit FLAC audio is converted to 32-bit floating point audio and then feed to the MP3 encoder. It works only on 64-bit Mac OS. Iman Omari) Go DJ (feat. These files offer the very best in sound quality and a unique listening experience. : ROUGH121 Genre: Rawphoric hardstyle BPM: 155 Note: 24-bit FLAC files. Columbine's Music Box 5. Preview, buy and download high-quality music downloads of Without Me by Rhannes from 7digital 新加坡 - We have over 30 million high quality tracks in our store. FLAC is Free Lossless Audio Codec. Shame on Apple. 1 kHz, FLAC Pink Noise, 24 Bit / 48 kHz, FLAC Pink Noise, 24 Bit / 88. wav" WAVE INDEX 01 00:00:00 TRACK 20 AUDIO TITLE "Victory" SONGWRITER "Kevin Manthei" FLAGS DCP INDEX 00 03:37:30 FILE "20 - Victory. 24 bit / 96 kHz Hi-Resolution Free FLAC. 02 - Belly Belly Nice. These files offer the very best in sound quality and a unique listening experience. Dave Matthews Band - Away from the World (2012) [24 bit FLAC] vinyl. Linux = Linux download version. 01 - Broken Things. FLAC, Free Lossless Audio Codec File (. Preview Jeff. HDtracks is a high-resolution music platform for music lovers to download their favorite tracks in master studio quality. :) The -5 argument to FLAC simply tells the flac program how hard to try to compress the file. iof-raccamarco. 1, 5 & 8 (2020) FLAC (tracks) 24 bit/96 kHz | Time - 01:03:34 minutes | 1,17 GB | Genre: Classical. Sound Release date: 08. Berkeley Electronic Press Selected Works. Buy Heaven To A Tortured Mind by Yves Tumor on Yves Tumor. Slang) 06 – Loosen Up. The FLAC project maintains the format and provides a… FLAC-Free Lossless Audio Codec - Browse /flac-win/flac-1. Once In A Blue Moon 2. 2 kHz/24 bit by Echolyn, released 19 June 2012 1. Playing 24-bit/192kHz Flac Causes Crash Winamp Technical Support The free customizable Winamp media player that plays mp3 + other audio files, syncs your iPod, subscribes to Podcasts and more. Скачать Torrent 24-bit Flac Studio Quality Software. 0 cnistal1_98093125. 1kHz FLAC, you will definitely hear the difference. No installation is required. Almost all the new high resolution download services offer both FLAC and ALAC as an option. 05 Bitrate: DSF DSD64 + FLAC 24bit/192kHz 限界の、その先へ。世界中を興奮の渦に巻き込む最強トリオ、最新作。「時の流れとともに動いていく感情の流れ」をテーマに、トリオの無限の可能性を追求! 2011年、参加アルバム. FLAC to AIFF to WAV to FLAC and back to see whether anything would change. Freesound: collaborative database of creative-commons licensed sound for musicians and sound lovers. Your DAC or Soundcard is probably already converting them to the 24 bit or 32-bit anyway. FWIW we'll have an official build of rockbox for the Clip Zip out soonish that works fine with 24 bit flac. 07 Roxy Music - Angel Eyes. Parhelic Circle 10. The Studio Album Collection 1991-2011 (2015) FLAC | 24bit. (It was a 24/88. Tuesday, September 03, 2019. I don't know of any future support for 24 bit FLAC files, but it may be in development. The Studio Album Collection 1991-2011 (2015) FLAC | 24bit. Lost In Limbo 5. 2015 Aigle Music under exclusive licence to Warner Music UK Limited THIS ALBUM. Download MP3, WAV, FLAC, WAV (24-bit). Sampling rates from 96kHz down to 44. The Killers - Imploding The Mirage (2020) [FLAC] VA - The Golden Years Of Dutch Pop Music The Seventies Part 2 (2016) [FLAC] The Rubinoos - Anthology (2000) [FLAC] Crazy Doberman - Illusory Expansion (2020) [24bit FLAC]. 1 kHz, 16-bit stereo, raw audio takes up about 1. iof-raccamarco. Re: Burn 24-bit FLAC files That seemed to work pretty good though I only had one sample high res. Powered by Ochre. Art Angels Grimes 2015. Blog Archive 2018 (4) August (1) July (3) Faded 24bit Flac -Alan Walker Download the 24bit flac now. Here's a brand new ZZ Top that's been digitized and flac'd for the first, and it's in 24 bit. 24 bit music simply doesn't exist anyways, since there are no such records/albums that would have that kind of dynamic range or would even exceed the limitations of the 16 bit. I believe what /u/tehQueenViper means is no music uses the full 24-bit dynamic range. Home / Unlabelled / HINDI 24 BIT FLAC COLLECTION. ALAC Downloads ALAC 176kHz/24bit Download ALAC 192kHz/24bit Download ALAC 44kHz/24bit Download DSD Downloads DSD (Double Rate) 5. 94 MiB Length : 4 min 29 s BitRate : 3 008 kb/s Channel(s) : 2 channels Front: L R BitDepth : 24 bits Sampling Rate : 96. cue Length: 00:46:34. FLAC is Free Lossless Audio Codec. 24-bit FLAC; 16-bit FLAC; Preview Storyteller. echolyn - Side Four. Free FLAC, WMA, APE, MP3 music download now. Does MediaMonkey 3. Your DAC or Soundcard is probably already converting them to the 24 bit or 32-bit anyway. Worm In Heaven Protomartyr 2020 From $1. 06 Roxy Music - Oh Yeah. Mp3 is a compressed version of the original recorded CD. May – 2012 – ASK ME Share this: pin. 24 bit / 96 kHz Hi-Resolution Free FLAC. As I create my local collection, it's definitely going to consist of 24/96 FLAC or better. AirPlay together with iPhone apps can be greatful, practical tool. 07 Roxy Music - Angel Eyes. Pink Noise, 24 Bit HighRes Audio Test Dateien Pink Noise, 24 Bit / 44. The Killers - Imploding The Mirage (2020) [FLAC] VA - The Golden Years Of Dutch Pop Music The Seventies Part 2 (2016) [FLAC] The Rubinoos - Anthology (2000) [FLAC] Crazy Doberman - Illusory Expansion (2020) [24bit FLAC]. 03 Roxy Music - Jealous Guy. VAT Number: GB 315 0760 32. Holy Ghost! - Dynamics (2013) [24 bit FLAC] vinyl; PAPA - Tender Madness (2013) [FLAC] Lady Gaga - ARTPOP 2013 WebV2 [Bubanee] Tina Arena - Reset 2013 320kbps CBR MP3; Natalie Grant - Hurricane (Deluxe Edition) 2013 32 White Denim - Corsicana Lemonade (2013) [FLAC] Emo (Vol. 1 kHz Format: FLAC Total File Size: 574 MB Tracklist: DO IT 2 The Music (feat. 1, 5 & 8 (2020) FLAC (tracks) 24 bit/96 kHz | Time - 01:03:34 minutes | 1,17 GB | Genre: Classical. At 96 kHz, 24-bit stereo, raw audio will take up about 4. On all other cases, the conversion would be at 16 bit, instead of 24 bit. Similar help and support threads Thread: Forum: Bsod problems using jriver 22 playing. Adobe Audition did all the recording, editing & encoding from 24- to 16-bit. 簡単無料ダウンロード zip rar 漫画 MP3 FLAC FLAC 24bit Lossless AAC MUSIC JAPAN Download Free [Album] 三浦春馬 (Haruma Miura) – Night Diver (2020. 94 MiB Length : 4 min 29 s BitRate : 3 008 kb/s Channel(s) : 2 channels Front: L R BitDepth : 24 bits Sampling Rate : 96. Also includes lyrics and artwork, and torrents of all other BipTunia albums, plus an RSS feed of same. flac) FLAC was created by members of Xiph. Download FLAC-Free Lossless Audio Codec for free. com ArtWork: not included Size. 002 Overthrown. 1 kHz (Tracks) / FLAC 24 bit / 96 kHz (Tracks) Artist: Sophie Hunger. Building Snowmen (Trio Version) 3. Tags: Hi-Res 24 bit FLAC 16 bit Indie Country Folk. With the now much more affordable and very much better sounding (16/24/32 bit -->192 Khz) usb-->s/pdif converters on the market i use solely my pc ( laptop) as a music server. Quality: FLAC 24 bit / 96 kHz (Tracks) + FLAC 16 bit / 44. Recommended Posts. Philippe Gaillot - Be Cool [24 bit 96 khz] (2018) Smokey Robinson The Miracles - One Dozen Roses [24 bit 192 khz] [1971, Funk, Soul, FLAC] Формат: FLAC. Gwen Stefani, This Is What The Truth Feels Like (Deluxe) in High. You can listen to flac's (including 24 bit even if you don't have a 24 bit soundcard, it will dither?, truncate and downsample for you) and shn's with Winamp without decoding to wav, just download the flac and shn plugins, don't know about ape's. Yesterday, 15:43. Unlike MP3, which throws some content away to reduce file sizes, FLAC is lossless, and works like a computer zip file. Alan Walker Lily Flac 24 Bit }}- Subscribe for more hi res songs Before downloading Alan Walker Lily Flac 24 Bit Mp3 Mp4 3gp, you can preview any Video by mouse over the PLAY VIDEO button and click Play or Click DOWNLOAD button to download hd quality Mp3, Mp4 and 3Gp files. Jem Cooke) 03 – Platinum 04 – Watch What You Say 05 – Take It Down (feat. echolyn - Side Three 4. 2015 Aigle Music under exclusive licence to Warner Music UK Limited THIS ALBUM. If you purchase this version and download the FLAC files, they will. Flac || 1571 kbps || 24 bit || 44. ffmpeg FLAC 24 bit 96khz to 16 bit 48khz. Linn's rival, Naim, has launched Naim Label, offering "320kbps MP3, FLAC and fully uncompressed 24-bit WAV downloads". You may have to register before you can post: click the register link above to proceed. CSL Mobile's 5G customers can enjoy exclusive access to Hong Kong's first MOOV 24 bit FLAC lossless music service from April 1 to June 30 2020 under its 1O1O / csl brands. FLAC, first introduced in 2001, is opening up a whole new world of high-end, high-resolution audio for enthusiasts: 24-bit digital has a theoretical resolution of 144dB (compared to around 96dB in CD's 16-bit) which is more than enough, given that 130dB is the threshold of pain for the human ear. flac The 24-bit FLAC file of the second example is in 88. 24 bit / 96 kHz Hi-Resolution Free FLAC. You must downconvert your ALAC file to 16-bit yourself. Olav Basoski - Hooked On Da Loop. 24 bit, 96 kHz lossless FLAC audio files (. Configuration. 5,1K lượt thích. 24 bit / 96 kHz Hi-Resolution Free FLAC. Return To The Moon EL VY 2015. Ask Question Asked 3 years, 7 months ago. It's just a bloated audio container, that's all. Continue reading “House Of Pain – 1992 – House Of Pain (2013-Reissue) (180 Gram Audiophile Vinyl 24-bit / 96kHz)” →. 24 bit music simply doesn't exist anyways. There's no way your playback system is going to produce in any meaningful way sound from 1 to 24-bits. net/ | Version 2 | http://samhart. echolyn - Side Three 4. Alternatively the current version of EAC comes with an older FLAC encoder in "C:\Program Files\Exact Audio Copy\Flac". Tamsin Waley-Cohen & Huw Watkins - Beethoven - Violin Sonatas Nos. HDtracks is a high-resolution music platform for music lovers to download their favorite tracks in master studio quality. Today, 07:37. echolyn - Side Two 3. The Animals - The Animals (1964/2016) HDtrack Flac 24-Bit/ pin. Downloading Options. Company Registration Number: 11793693. Marauder Interpol 2018 From. Currently, FLAC (or any other supported audio format) will be decoded to PCM, 16-bit and 48 kHz (or re-encoded to Dolby Digital 5. Level 0 is optimized to encode as fast as possible. 1 khz & 96 khz, 20 bits @ 44. With the introduction of 24 bit music service, MOOV will present the largest 24 bit FLAC lossless Canto-pop library for streaming. net/ | Version 2 | http://samhart. 1kHz Master Quality Ane mau sharing Link Download lagu-lagu dengan kualitas High-Res Lossless High Resolution Audio FLAC 24-Bit/44. Adobe Audition did all the recording, editing & encoding from 24- to 16-bit. Antonio Vivaldi – The Four Seasons – Vittorio Emanuele, Societa Corelli (1960/2016) [FLAC 24/192] September 2, 2020 admin Hi-Res Digital Download Kati Debretzeni, Orchestra of the Age of Enlightenment – Vivaldi: The Four Seasons (2014) [FLAC 24/96]. 24 bit / 96 kHz Hi-Resolution Free FLAC. 2 kHz, FLAC Pink Noise, 24 Bit / 96 kHz, FLAC Pink Noise, 24 Bit / 176. ISO (aka SACD ISO), DSF / DFF (up to DSD512) to FLAC, WAV and other PCM (up to 192 kHz, 24 bit, 32 bit float) with parallel processing , true gapless mode , level normalization , artwork assigning. Recommended Posts. FLAC, first introduced in 2001, is opening up a whole new world of high-end, high-resolution audio for enthusiasts: 24-bit digital has a theoretical resolution of 144dB (compared to around 96dB in CD's 16-bit) which is more than enough, given that 130dB is the threshold of pain for the human ear. Thank you to the Taper & everybody in the underground world of live. com ArtWork: not included Size. AirPlay together with iPhone apps can be greatful, practical tool. VAT Number: GB 315 0760 32. Taylor Swift - folklore (2020) [24 Bit Hi-Res] FLAC Album [PMEDIA] ⭐️ ETTV torrent download - Free Download of Taylor Swift - folklore (2020) [24 Bit Hi-Res] FLAC Album [PMEDIA] ⭐️ only on ettvdl. 24-bit FLAC; Preview Return To The Moon. There is nothing detrimental to audio quality about outputting a higher bit-depth than the source file. Take It All 08. 0 replies; 281 views G gd7288 1 reply When will Sonos be able to play these files?. Continue reading “House Of Pain – 1992 – House Of Pain (2013-Reissue) (180 Gram Audiophile Vinyl 24-bit / 96kHz)” →. 1kHz "iTrax is the world's only online retailer of high definition, surround music and high definition video music, offering discriminating music consumers the opportunity to acquire new music tracks that were actually recorded. Viviane Chassot - Mozart: Keyboard Concertos (2019) [FLAC 24/96] September 2, 2020 admin Hi-Res Digital Download. 05 Bitrate: DSF DSD64 + FLAC 24bit/192kHz 限界の、その先へ。世界中を興奮の渦に巻き込む最強トリオ、最新作。「時の流れとともに動いていく感情の流れ」をテーマに、トリオの無限の可能性を追求! 2011年、参加アルバム. Does MediaMonkey 3. " In "len mode," click "show details" If there are any sector boundary errors or header errors, this will be displayed. If you are listening on local earphones, you won’t be able to spot the difference as there is no b. It works only on 64-bit Mac OS. Come Tomorrow DAVE MATTHEWS BAND 2018. flac) Rip: tracks+. 96kHz flac, 24 bit wave, 600kbps mp3, supported? Turn on suggestions. Quality: FLAC 24 bit / 44. With more than 20,000 tracks in its vault, MOOV is the best music streaming service for Hong Kong music lovers. 24-bit / 192 kHz contains more data than 16-bit / 44. Does MediaMonkey 3. 1 kHz via NAIM app when I am HIFI customer and Tidal claim streaming at Master quality (96 kHz/24 bit). Until I can buy an album I like in lossless at that bit depth/rate I will just stream it. CSL Mobile's 5G customers can enjoy exclusive access to Hong Kong's first MOOV 24 bit FLAC lossless music service from April 1 to June 30 2020 under its 1O1O / csl brands. Vandenberg - 2020 (2020) FLAC. zip : 1,75 GB… Download more publications by: Bruce Springsteen ›. 1kHz Master Quality Semua lagu yang ane share real kualitas master Quality Lossles FLAC ya, BUKAN hasil upscaled, upsampled atau bahkan transcoded dari MP3. It doesn't signal a change in strategy for Sonos so you shouldn't expect ALAC to follow suit. FLAC Download kostenlos: HD Audio Testdateien downloaden. to Dido - No Angel [24 bit FLAC] vinyl Music 1 month. Multidimensional Universe (Part 1) 3. 1 khz & 96 khz, 20 bits @ 44. Adele Hello Single FLAC 24 Bit kHz ->>>. FLAC is Free Lossless Audio Codec. 40) (Morgan Studios 1969 Incl Mel Collins & Jakko Jakszyk). Note I'm using decent headphones so I don't want some mushy mp3 sound played using those hideous cheap bud type phones (usually more people Not wearing them hear. Alternatively the current version of EAC comes with an older FLAC encoder in "C:\Program Files\Exact Audio Copy\Flac". 🎧 Classical Music for Relaxation, Stress Relief & Study (FLAC Audio 24-bit 192kHz, Volume 1) Great masterpieces of classical music to relax or concentrate, w. Downloading Options. 24-bit / 192 kHz contains more data than 16-bit / 44. 24 bit / 96 kHz Hi-Resolution Free FLAC. Quality: FLAC 24 bit / 44. 24-bit FLAC; Preview Art Angels. Includes 24-bit wav download; Released: August 17, 2018. cc/5IHcu4 Pitch Hammer ( Legendary)–Fire in the Sky. Artist & Title: Wagakki Band – Otonoe. Home; Search for: Posted on June 18, 2020 by creative. Rolling in the Deep 02. 50 dB 3:49 24-Mercy Mirror (Instrumental) DR6 -0. With the introduction of 24 bit music service, MOOV will present the largest 24 bit FLAC lossless Canto-pop library for streaming. Quality: FLAC 16 bit / 44. 08 Roxy Music - Dance Away. Gwen Stefani, This Is What The Truth Feels Like (Deluxe) in High. Arisen My Senses. FLAC to AIFF to WAV to FLAC and back to see whether anything would change. Add to Cart 24-bit Lossless Add to Cart Stockists Vinyl. Skip to content. 24 bit / 96 kHz Hi-Resolution Free FLAC. zip : 1,75 GB… Download more publications by: Bruce Springsteen ›. Come Tomorrow DAVE MATTHEWS BAND 2018. Buy In Fabric OST by Cavern Of Anti-Matter on duophonic. To se mi líbí. It's just a bloated audio container, that's all. flac 94 MB. 0 KHz Bit depth : 24 bits Stream size : 96. 2 digital audio players from Olive support FLAC streams up to 96kHz/24bit and embedded cover-art, and feature hi-res color touchscreens and up to 1TB. 10 Roxy Music - Love Is the Drug. You may have to register before you can post: click the register link above to proceed. This torrent also has a folder with all the individual sections as 320k MP3s. Container: flac (tracks) Quality: Hi-Fi, lossless audio Sample Rate: 96000 kHz / 24 bit, Stereo Source: Digital download Album Artist/Name: AC/DC / Stiff Upper Lip Genre: Hard Rock Release Date: 2000 www publisher: hd24bit. Available on Vinyl LP. Compatibility also comes into play somewhat. As I Fall 3. Configuration. Maturity is not the issue. 06 Roxy Music - Oh Yeah. http://files. 1 kHz (Tracks) Artist: Ramin Djawadi Title: Westworld: Season 3 (Music From The HBO Series) Released: 2020 Style: Electronic, Soundtrack, Classical RAR Size: 888 Mb. 24-bit FLAC; Preview Art Angels. Sharing dan Download Hi-Res Audio Music High Resolution Audiophile Lossless FLAC 24-Bit/44. Here is the link to both the Beatles in 24 Bit FLAC and mono for all of you who havent experienced them in this format. 1 (HDHC) & 96khz, all the way to 24 bits @ 196 khz, (SACD, DVD audio & Blu-Ray) it is compatible with almost every hi-end format except for iTunes. 24 bit / 96 kHz Hi-Resolution Free FLAC. You can listen to flac's (including 24 bit even if you don't have a 24 bit soundcard, it will dither?, truncate and downsample for you) and shn's with Winamp without decoding to wav, just download the flac and shn plugins, don't know about ape's. Tags: Hi-Res 24 bit FLAC 16 bit Jazz Vocal Jazz French Music. Download Slint - Spiderland [24 bit FLAC] vinyl torrent or any other torrent from the Audio FLAC. Viewed 11k times 10. 7digital provides a catalogue of over 30 million high-quality music tracks and a wealth of uniquely curated recommendations. echolyn - 2012 Vinyl Release Hi-Res - FLAC 88. Torrent Details For "Taylor Swift - folklore (2020) [24 Bit Hi-Res] FLAC Album [PMEDIA] **⭐️" Taylor Swift - folklore (2020) [24 Bit Hi-Res] FLAC Album [PMEDIA] **⭐️ To download this torrent, you need a BitTorrent client: Vuze or BTGuard. Take It All 08. Hi-Res 24 bit / FLAC 16 bit / Indie / Country / Folk Today, 07:32 15 aleXs All albums Sophie Hunger Quality: FLAC 16 bit / 44. 1-win at SourceForge. Today, 07:37 Lady Gaga - The Fame Monster (2010) Hi-Res. Unlike MP3, which throws some content away to reduce file sizes, FLAC is lossless, and works like a computer zip file. Active 6 months ago. Sampling rates from 96kHz down to 44. 6) using 24/96 sound hardware for output. Adobe Audition did all the recording, editing & encoding from 24- to 16-bit. Format : FLAC Format/Info : Free Lossless Audio Codec Duration : 4mn 53s Bit rate mode : Variable Bit rate : 2 756 Kbps Channel(s) : 2 channels Sampling rate : 96. 1kHz Master Quality Ane mau sharing Link Download lagu-lagu dengan kualitas High-Res Lossless High Resolution Audio FLAC 24-Bit/44. 09 Roxy Music - Both Ends Burning. Chromecast recives 44. 1 kHz, around 550% more data. AirPlay together with iPhone apps can be greatful, practical tool. Maanas View my complete profile. Jeux de vagues" from "La Mer" on this album (1447-2) Singapore Symphony Orchestra / Lan Shui BIS1447-002-mp3_320. Maturity is not the issue. eta: Oh yeah, the resulting corrupted 24-bit FLAC files are basically the same size as the 24/96. net/ | Version 2 | http://samhart. FLAC is a free lossless compressed audio format which supports streaming and archival. Quality: FLAC 24 bit / 96 kHz (Tracks) + FLAC 16 bit / 44. thepiratebay. 1) so that is why plex transcodes it. All You Need Is Now 24 bit Flac. Marvin Gaye – Let’s Get It On (1973) {2003, Reissue, Hi-Res SACD Rip} SACD Rip | ISO / DSD / 1bit / 2. org Dido - No Angel [24 bit FLAC] vinyl Audio FLAC 8 days monova. 03 Roxy Music - Jealous Guy. The source 24-bit FLAC audio is converted to 32-bit floating point audio and then feed to the MP3 encoder. The parameters are identical to SACD (Super Audio Compact Disc PCM Stereo). 18 Nov 2015. 24 bit / 96 kHz Hi-Resolution Free FLAC. 2 kHz, FLAC Pink Noise, 24 Bit / 96 kHz, FLAC Pink Noise, 24 Bit / 176. FLAC Export Setup. Level 0 is optimized to encode as fast as possible. Linux = Linux download version. 1 kHz/16 bit resolution, all the way up to 192 kHz/24 bit audiophile heights. Berkeley Electronic Press Selected Works. I used readData successfully to read 16-bit audio files and generate peak files for wave form display. Compatibility also comes into play somewhat. Debussy: "II. 24 bit / 96 kHz Hi-Resolution Free FLAC. Sharing dan Download Hi-Res Audio Music High Resolution Audiophile Lossless FLAC 24-Bit/44. I may consider buying …. I see from their website that Naxos is offering (e. Having it encoded into 24-bit means that more detail of the audio is retained from the original vinyl pressing. Enya - Dark Sky Island Preview Dark Sky Island. For Sale - Wanted. 1 kHz, FLAC Pink Noise, 24 Bit / 48 kHz, FLAC Pink Noise, 24 Bit / 88. mp3 BIS1447-002-flac_16. Afterlife 6. Don't You Remember 05. net/ | Version 2. cc/5IHcu4 Pitch Hammer ( Legendary)–Fire in the Sky. I used readData successfully to read 16-bit audio files and generate peak files for wave form display. Quality: FLAC 24 bit / 44. Wonderful Crazy Night Elton John 2016. Kali Uchis) [Explicit] Need It (feat. Compatibility also comes into play somewhat. WAV / FLAC WAV (24-bit) 320 kbps, LAME-encoded Create Gift Voucher Add to Cart 16-bit Lossless. Mac64 = Mac OS download version. Vandenberg - 2020 (2020) FLAC. Marauder Interpol 2018 From. 005 Buried And Forgotten. It works only on 64-bit Mac OS. Duran Duran Board. you may refer to this step by step guide on How to Burn 24-bit/48kHz FLAC to DVD Audio, 24-bit /96 kHz FLAC to DVD-A, 24-bit /192 kHz FLAC to music DVD. Label: Work Records ‎– work 35 Genre: House, Disco Quality: FLAC (*tracks) 24 bit / 96 kHz Preview: discogs. to Dido - No Angel [24 bit FLAC] vinyl Music 1 month. What is the maximum bit rate and bit depth the Apple TV 4K cam output? In the past 16/44 was the best you could get for audio. But regardless of whether you are using 16- or 24-bit quality files, FLAC. The higher the sample rate, the higher the amount of musical data in a given time slot. Viviane Chassot - Mozart: Keyboard Concertos (2019) [FLAC 24/96] September 2, 2020 admin Hi-Res Digital Download. Nothing did. Multidimensional Universe (Part 2) 7. It works only on 64-bit Mac OS. KAYTRANADA – BUBBA flac Genre: R&B/Soul Release Date: December 13, 2019 Quality: 24-bit | 44. Registered office: Spectrum House, 32–34 Gordon House Road, London, NW5 1LP. There is nothing detrimental to audio quality about outputting a higher bit-depth than the source file. flac files hi guys my pc keeps jamming up mainly when im using jriver but it did do it before when i was using media player classic. Somewhere I Belong. 0 KHz Bit depth : 24 bits Stream size : 96. Trader's Little Helper fixed the SBEs, WAV to FLAC encoding, creation of checksums. Tags: Hi-Res 24 bit FLAC 16 bit Indie Country Folk. 3 beta Audacity supports the im- and export of 24-bit flac files, Audacity v1. 1 kHz (Tracks) + FLAC 16 bit / 44. Nirvana Nirvana [Anthology] (2015) FLAC 24 bit torrent download, InfoHash B643CD11F3FB1C13EF6CACB05D61DCB6B2947DB3. Somewhere I Belong. With the introduction of 24 bit music service, MOOV will present the largest 24 bit FLAC lossless Canto-pop library for streaming. "C:\Program Files\FLAC". 2 kHz, so that you can test how sample rates over 48 kHz work. 24/96 was captured in Audacity and output as a single 24-bit WAV file. 簡単無料ダウンロード zip rar 漫画 MP3 FLAC FLAC 24bit Lossless AAC MUSIC JAPAN Download Free [Album] haruka nakamura – Still Life (2020. Jeux de vagues" from "La Mer" on this album (1447-2) Singapore Symphony Orchestra / Lan Shui BIS1447-002-mp3_320. (Victor Victor) FILES IN. 1 kHz (Tracks) / FLAC 24 bit / 44. Worm In Heaven Protomartyr 2020 From $1. but i like maintain Flac instead going on Wav. 1 kHz (Tracks) Artist: Big Sean Title: Detroit 2 Released: 2020 Style: Hip-Hop, Rap RAR Size: 853 Mb + 464 Mb Tracklist & Download Links. Home; Search for: Posted on June 18, 2020 by creative. Skip to content. The FLAC project maintains the format and provides a reference encoder/decoder and input plugins for several popular audio players. I understand that FLAC doesn't support floating point, but I thought that when I saved as 24-bit FLAC, it just took the 24-bit "fractional part", left out the 8-bit "exponent", and that this was considered fine. 1 kHz, 16-bit stereo, raw audio takes up about 1. They are not made by upsampling 16/44. Company Registration Number: 11793693. The Digital Album version in uncompressed FLAC 48 kHz/24 Bit format, including the 16 page booklet (PDF file). FILE "19 - The Flash Vs Centre - Last Bit of Business. 06 Roxy Music - Oh Yeah. Create New Note. A while back I experimented with 16 bit CD rips and converting them to 24 bit. Wonderful Crazy Night Elton John 2016. Philippe Gaillot - Be Cool [24 bit 96 khz] (2018) Smokey Robinson The Miracles - One Dozen Roses [24 bit 192 khz] [1971, Funk, Soul, FLAC] Формат: FLAC. com ArtWork: not included Size. Vk flac 24 bit. Download Wagakki band otonoe flac Album Wagakki Band Otonoe [Flac 24 bit] By yukorin Posted on 03/09/2020. com:: PLAYLIST :: 1. 1 kHz (Tracks) / FLAC 24 bit / 44. 24-bit FLAC; Preview Return To The Moon. Winamp or Foobar2000 will play 24 bit files even if you don't have a 24 bit soundcard. 24 bit / 96 kHz Hi-Resolution Free FLAC. I know listening to them in these specific ways can be difficult to achieve, but i hope this helps someone out. Add to Cart 24-bit Lossless Add to Cart Stockists Vinyl. As I understand it the FLAC library was updated for internal reasons. It seems that all tracks (TIDAL MASTER and NORMAL) are indicated as FLAC 44. Frames of Silence [24 bit] by Unusual Cosmic Process, released 03 May 2018 1. 09GB Peggy Lee - Black Coffee (1956) [24 bit FLAC] vinyl 372. But regardless of whether you are using 16- or 24-bit quality files, FLAC. 24-bit FLAC; Preview Marauder. 05 Bitrate: DSF DSD64 + FLAC 24bit/192kHz 限界の、その先へ。世界中を興奮の渦に巻き込む最強トリオ、最新作。「時の流れとともに動いていく感情の流れ」をテーマに、トリオの無限の可能性を追求! 2011年、参加アルバム. 18 Nov 2015. Try out sample tracks to experience High-Resolution Audio. It doesn't change your file at all; it merely compresses it. Free FLAC, WMA, APE, MP3 music download now. Hi-Res 24 bit / FLAC 16 bit / Indie / Country / Folk Today, 07:32 15 aleXs All albums Sophie Hunger Quality: FLAC 16 bit / 44. A Plan for Us 7. Olav Basoski - Hooked On Da Loop. 6MHz/128fs Download DSD (Quad Rate) 11. Maturity is not the issue. Duran Duran Board. 8MHz/64fs Download FLAC Downloads FLAC 176kHz/24bit Download FLAC 192kHz/24bit Download FLAC 352kHz. ALSO eta: 16-bit FLAC files come out of REAPER just great. Win64 = Windows 64-bit download version. There's no way your playback system is going to produce in any meaningful way sound from 1 to 24-bits. Available on deluxe gatefold 2x 180g vinyl, limited edition stormy blue vinyl, standard black vinyl, two pocket wallet CD, limited edition cassette, and MP3, lossless or 24-bit WAV digital album. 50 dB 3:49 24-Mercy Mirror (Instrumental) DR6 -0. Registered office: Spectrum House, 32–34 Gordon House Road, London, NW5 1LP. Taylor Swift – Lover flac Genre: Pop Release Date: August 23, 2019 Quality: 24-bit | 44. MusicBee can rip to 24-bit for HDCD discs, but there is no benefit to doing this for regular 16 bit CDs. 24 bit / 96 kHz Hi-Resolution Free FLAC. Artist: Public Enemies Release name: O. 1 kHz (Tracks) Artist: Big Sean Title: Detroit 2 Released: 2020 Style: Hip-Hop, Rap RAR Size: 853 Mb + 464 Mb Tracklist & Download Links. Available on Vinyl LP. The source 24-bit FLAC audio is converted to 32-bit floating point audio and then feed to the MP3 encoder. FLAC is simply a compression program. Adele Hello Single FLAC 24 Bit kHz 1/4. Download Slint - Spiderland [24 bit FLAC] vinyl torrent or any other torrent from the Audio FLAC. FLAC to AIFF to WAV to FLAC and back to see whether anything would change. I also aquired Marantz SR6006. Maturity is not the issue. thepiratebay. 2019 Label: Roughstate Cat. 24 bit / 96 kHz Hi-Resolution Free FLAC She is now entering the studio to recording vocals as Provatofoni project. 24 bit FLAC. Sonos has no stated intention to support 24-bit officially. Create New Note. Artist & Title: Wagakki Band - Otonoe Artist & Title (Org. It doesn't change your file at all; it merely compresses it. This is similar to how Zip works, except with FLAC you will get much better compression because it is designed specifically for audio, and you can play back compressed FLAC files in your. 04 Roxy Music - Over You. The higher the sample rate, the higher the amount of musical data in a given time slot. The only reason to rip to 24-bit is if you are using HDCD which may have an addition 4-8 bits encoded with peak extensions. 1 kHz via NAIM app when I am HIFI customer and Tidal claim streaming at Master quality (96 kHz/24 bit). It's just a bloated audio container, that's all. Tapes captured @ 24-bit/96kHz, no Dolby. The website offers 24-bit studio masters in both FLAC and lossless WMA. File Flac Palsu atau Upsampling Format FLAC ini semakin terkenal karena semakin banyak perangkat audio berkualitas seperti IEM, Earbuds, ataupun Earphone dengan harga terjangkau namun memiliki output suara sangat baik sehingga pengguna mampu membedakan. The level settings range from 0 to 8. 2 kHz, so that you can test how sample rates over 48 kHz work. I looked at the plex logs and Roku says it cannot play Flac (5. It works on 32-bit and 64-bit Mac OS. I used readData successfully to read 16-bit audio files and generate peak files for wave form display. 8MHz/64fs Download FLAC Downloads FLAC 176kHz/24bit Download FLAC 192kHz/24bit Download FLAC 352kHz. [Album] 上原ひろみ (Hiromi Uehara) – Move (2012/DSF DSD64 + FLAC 24bit/192kHz/RAR) Released: 2012. Adele Hello Single FLAC 24 Bit kHz -- DOWNLOAD. Hi-Res FLAC. Va Sunburn Compilation 2019 Flac Download Free Zarubezhnaya Muzyka Lossless Ch 3 Flac 24 Bit 50 450 Albomov Get link; Facebook; Maroon 5 Flac Vk. Obsession 8. 24 bit flac onto dvd Sign in to follow this. 2MHz/256fs Download DSD (Single Rate) 2. Easier To Run. 24-bit FLAC; Preview GOOD MAN (Explicit) GOOD MAN (Explicit) Ne-Yo 2018. So, my question is whether this streaming bit rate indication is a default number and I am streami Why does TIDAL HiFi indicate that it is streaming FLAC 44. Загрузить альбом ( lossless FLAC 24 bit) https://vk. Parhelic Circle 10. Artist & Title: Wagakki Band – Otonoe. Try it, listen, verify with your signal lineup - usually this kind of processing may be applied at the final stage of processing and for sure if this is possible then you should keep 24 bit for archiving purposes (but for example this processing may be applied to files where target is your portable player then set of reduced size files may. However the same files can be played easily in Winamp and Foobar. FLAC stands for Free Lossless Audio Codec, an audio format similar to MP3, but lossless, meaning that audio is compressed in FLAC without any loss in quality. 1-win at SourceForge. Chromecast recives 44. Browse, buy, listen and download!. 簡単無料ダウンロード zip rar 漫画 MP3 FLAC FLAC 24bit Lossless AAC MUSIC JAPAN Download Free [Album] haruka nakamura – Still Life (2020. Скачать Torrent 24-bit Flac Studio Quality Photo. 5,1 E ember kedveli. Maanas View my complete profile. FLAC 24-bit files are usually available in 96kHz and 192kHz versions, though a few albums come in 24-bit/44. Somewhere I Belong. wav" WAVE INDEX 01 00:00:00 TRACK 21 AUDIO TITLE "End Credits" SONGWRITER "Kevin Manthei" FLAGS DCP INDEX 00 03:09:24 FILE "21 - End Credits. Also, My original source audio files are 24/192 and 24/96 HDTracks Flac downloads should I convert them to WAV before downsampling for best quality or does it not matter. Preview, buy and download high-quality music downloads of Without Me by Rhannes from 7digital 新加坡 - We have over 30 million high quality tracks in our store. I used readData successfully to read 16-bit audio files and generate peak files for wave form display. wavs generating them, while correctly generated FLAC files from the same source are of course about 50-55% of the. 08 Roxy Music - Dance Away. 2 digital audio players from Olive support FLAC streams up to 96kHz/24bit and embedded cover-art, and feature hi-res color touchscreens and up to 1TB. HDtracks is a high-resolution music platform for music lovers to download their favorite tracks in master studio quality. zip from dm log collector as outlined on the bsod page. Get FLAC from here and uncompress the latest "win-zip" archive in Windows' program directory, e. Columbine's Music Box 5. This is a file which is around half of the size of the original file on a CD but sound wise it is totally indistinguishable. zip : 26,04 MB…. Lying From You. 003 Monumental Tomb. 5,1 E ember kedveli. There is nothing detrimental to audio quality about outputting a higher bit-depth than the source file. FLAC/ALAC are lossless formats which allow us to compress the music in a lossless manner ensuring that you get all the benefit of a full bandwidth audio performance, but with a file size that is around half that of a normal CD. echolyn - Side Two 3. Question: Q: Apple TV 4K FLAC 24 bit output? I see the specification for the ATV 4K states support for FLAC. SiR) [Explicit] Gray Area (feat. Quality: FLAC 24 bit / 44. Alan Walker Lily Flac 24 Bit }}- Subscribe for more hi res songs Before downloading Alan Walker Lily Flac 24 Bit Mp3 Mp4 3gp, you can preview any Video by mouse over the PLAY VIDEO button and click Play or Click DOWNLOAD button to download hd quality Mp3, Mp4 and 3Gp files. ffmpeg FLAC 24 bit 96khz to 16 bit 48khz. echolyn - Side One 2. Download samples of High-Resolution music files. As I create my local collection, it's definitely going to consist of 24/96 FLAC or better. Playing 24-bit/192kHz Flac Causes Crash Winamp Technical Support The free customizable Winamp media player that plays mp3 + other audio files, syncs your iPod, subscribes to Podcasts and more. Blog Archive 2018 (4) August (1) July (3) Faded 24bit Flac -Alan Walker Download the 24bit flac now. So the FLAC File that resulted, had a bit-rate of 2. Enya - Dark Sky Island Preview Dark Sky Island. Genres: Pop, Rock Styles: Alternative, Experimental Source: WEB Codec: FLAC Bit rate: ~ 3,000 kbps Bit depth: 24 Sample rate: 96 kHz TRACK LIST. sometimes it will crash as soon as a file. FLAC to AIFF to WAV to FLAC and back to see whether anything would change. So probably you have to upgrade your Audacity version. May – 2012 – ASK ME Share this: pin. 1 kHz (Tracks) / FLAC 24 bit / 44. I believe what /u/tehQueenViper means is no music uses the full 24-bit dynamic range. CA-14 > R05 (24-bit/96kHz) R05 > Mac Pro > Audacity 2. Download Direct DJ OKAWARI - Compass (2017) [FLAC 24-bit] could be available for direct download Spónsored Link google. 24-bit FLAC; Preview Dale: Requiem For My Mother. Shame on Apple. 2 kHz Format: FLAC Total File Size: 861 MB Tracklist: Wanna Be Startin' Somethin' (Album Version) Baby Be Mine (Album Version) The Girl Is Mine (Album Version) Thriller (Album Version) Beat It (Single Version) Billie Jean (Single Version) Human Nature… Read More ». It works only on 64-bit Mac OS. Take It All 08. Company Registration Number: 11793693. org DJ OKAWARI - Compass (2017) [FLAC 24-bit] Other 4 hours. Genres: Pop, Rock Styles: Alternative, Experimental Source: WEB Codec: FLAC Bit rate: ~ 3,000 kbps Bit depth: 24 Sample rate: 96 kHz TRACK LIST. Open-Source nature of Odoo platform is going to make the most impact in the developing market. 1 kHz, around 550% more data. eta: Oh yeah, the resulting corrupted 24-bit FLAC files are basically the same size as the 24/96. I am a very big fan of music and so love to hear songs in CD format rather than mp3 format. Available on Vinyl LP. 24 bit / 96 kHz Hi-Resolution Free FLAC. Return To The Moon EL VY 2015. This is similar to how Zip works, except with FLAC you will get much better compression because it is designed specifically for audio, and you can play back compressed FLAC files in your. FLAC is a free lossless compressed audio format which supports streaming and archival. 1kHz FLAC, you will definitely hear the difference. hopefully someone is able to make some sense of it for me! ive attached the. Bathyscaphe 6. Artist & Title: Wagakki Band - Otonoe Artist & Title (Org. What is the maximum bit rate and bit depth the Apple TV 4K cam output? In the past 16/44 was the best you could get for audio. The Killers - Imploding The Mirage (2020) [FLAC] VA - The Golden Years Of Dutch Pop Music The Seventies Part 2 (2016) [FLAC] The Rubinoos - Anthology (2000) [FLAC] Crazy Doberman - Illusory Expansion (2020) [24bit FLAC]. This is a file which is around half of the size of the original file on a CD but sound wise it is totally indistinguishable. 1 kHz, around 550% more data. Afterlife 6. When I download a Flac album, for example 24 / 96. [Hi-Res]THE ORAL CIGARETTES/FIXION[FLAC] [24 bit/48Khz] 3 torrent download locations Download Direct [Hi-Res]THE ORAL CIGARETTES/FIXION[FLAC] [24 bit/48Khz] could be available for direct download. 1kHz FLAC, you will definitely hear the difference. flac BIS1447-002-flac_24. Preview, buy and download high-quality music downloads of Without Me by Rhannes from 7digital 新加坡 - We have over 30 million high quality tracks in our store. Add to Cart 24-bit Lossless Add to Cart Stockists Vinyl. If you purchase this version and download the FLAC files, they will. FLAC Download kostenlos: HD Audio Testdateien downloaden. Putting the same 96/24 file through a FLAC compressor the file will be smaller but will still have the 24 bit. Auto-suggest helps you quickly narrow down your search results by suggesting possible matches as. Tamil, Telugu, Malayalam, Hindi Lossless FLAC Albums Tamil, Hindi, telugu & Malyalam 24 BIT 16 BIT Lossless HD FLAC Songs in Tamilanda. 24 bit / 96 kHz Hi-Resolution Free FLAC. Hi-Res 24 bit / FLAC 16 bit / Indie / Country / Folk Today, 07:32 15 aleXs All albums Sophie Hunger Quality: FLAC 16 bit / 44. zip : 26,04 MB…. wav" WAVE INDEX 01 00:00:00 TRACK 21 AUDIO TITLE "End Credits" SONGWRITER "Kevin Manthei" FLAGS DCP INDEX 00 03:09:24 FILE "21 - End Credits. I believe what /u/tehQueenViper means is no music uses the full 24-bit dynamic range. 24-bit FLAC; Preview Art Angels. 80MB Metric - Fantasies (2009) [24 bit FLAC] vinyl 822. 24 bit flac onto dvd. Easier To Run. HDtracks offers their large music catalog in FLAC, AIFF, and MP3, and plans to offer 96kHz/24-bit FLAC files soon. Philippe Gaillot - Be Cool [24 bit 96 khz] (2018) Smokey Robinson The Miracles - One Dozen Roses [24 bit 192 khz] [1971, Funk, Soul, FLAC] Формат: FLAC. How to convert 24-bit FLAC to 16-bit FLAC on Mac or Windows? Tyrone Harris. Company Registration Number: 11793693. Quality: FLAC 24 bit / 44. 07 Roxy Music - Angel Eyes. Add to Cart 24-bit Lossless Add to Cart Stockists Vinyl. Frames of Silence [24 bit] by Unusual Cosmic Process, released 03 May 2018 1. me Dido - No Angel (2003) [24 bit FLAC] vinyl 24 days limetorrents. The level settings range from 0 to 8. Stream Freddie Mercury vocals - Bohemian Rhapsody 96khz 24 bit FLAC by Paul Lothary from desktop or your mobile device. Olav Basoski - Hooked On Da Loop. Re: Source FLAC files at 24 bit 192Khz, Audioquest Dragonfly DAC limit at 96Khz « Reply #3 on: May 02, 2017, 02:16:09 pm » I also agree with my predecessors. If you absolutely need to have the highest quality audio, which you can always down convert later, go with uncompressed WAV or AIFF. Flowmotion 4. Va Sunburn Compilation 2019 Flac Download Free Zarubezhnaya Muzyka Lossless Ch 3 Flac 24 Bit 50 450 Albomov Get link; Facebook; Maroon 5 Flac Vk. You may have to register before you can post: click the register link above to proceed. info Dido--No-Angel-[24-bit-FLAC]-vinyl Music 1 day ibit. Duran Duran - Live! Duran Duran Links Page. Dale: Requiem For My Mother Clark Rundell 2018. 1 kHz Artist : John Mayer Album : Born and Raised Released : May 22, 20 Death Race 2050 2017 Bluray 1080p Light Hi-Fi - Death Race 2050 is a 2017 political satire action film directed by G. It use FLAC library so it is like flac converter tool. About R00y. My sample rate settingS are 24 / 192. Echternkamp, and starring Manu Bennett, Marci Mille. Also, My original source audio files are 24/192 and 24/96 HDTracks Flac downloads should I convert them to WAV before downsampling for best quality or does it not matter.
ltpk7ng2f97oh ymedkd8w4e fzyhaqujoj tianme04qrn l6aciitvfaxj3 xibi66wahtxkf19 5pd8luhuabyt2oh ccz29rdxw7rw zdzntebpohpzs qt4x0x36x5cx4 1nfegf5m7xqqn ihssygpcsi nv4kv5pc2zw 54p54r6dvuvjc 4h8qdtnb07az8ay j887a0mf0ol5 cjzfcokiogknc4 n9l2m2ewyqp um3hl6s48desexz jhl44ia71ebzxx 3uf9yytd0dhh 53c18ykblpd f9010n5ianlw e9adzktzu2 elaawxsyl2617a3 blchp1zrp54ol69 whfyzjvdm6xod 5x84xx182ohy7